KTORRENT - souboj lamy s torrentem

Tak je tu další díl, tentokráte jak lama bojovala s torentem a nakonec vyhrála.


Máme soubor(y), které jsme se rozhodli sdílet. Pro jednoduchost dám příklad, že chceme sdílet soubor lvice.avi. Co s tím? Stačí si vytvořit torrent, soubor např. lvice.torrent a ten vystavit na trackeru. Samozřejmě ten torrent dát pomocí našeho klienta sdílet.

vytvtorTak a začneme vyrábět svůj první torrent v klientu KTORRENT na trackeru tracker.cztorrent.net. Nejdříve musíme zjistit svůj PID. Klepneme nahoře na UPLOAD, zvolíme kategorii a dostaneme se do části, kde je vypsáno asi tohle:

http://82.100.11.62:8080/announce/
announce.php?pid = uaj0hj5wek0e7mcv (je to adresa pro zadávání nových torrentů + náš PID, otazník se nepočítá, znamená první argument). Nyní v klientu sítě P2P KTORRENTu zadáme nahoře v menu Soubor, Nový (myslí se tím nový torrent). Pak zvolíme soubor nebo složku (v našem případě lvice.avi) a nastavíme zatržítka tak, jak jsou na obrázku. Doplníme adresu pro zadávání nových torrentů + náš PID (pozor není ID) do rámečku TRACKERY, dáme přidat a potom vytvořit. Dojde k vytvoření souboru lvice.torrent (chvilku to trvá), který se začne ihned sdílet.

Toto sdílení zastavíme a začneme se schvalovací procedurou. Tedy pokračujeme tam, kde jsme skončili v menu UPLOAD. Tedy budeme nahrávat námi vytvořený torrent na tracker. Stiskneme tlačítko procházet, najdeme náš vytvořený soubor lvice.torrent. Pak stiskneme vedle tlačítko pokračovat.

Objeví se nám pravidla a tabulka, kde máme zadat název, jazyk, titulky... bitrate zvuku a použitý kodek... a já zde skončil, informace jsem neměl po ruce a v mém LINUXu doporučovaný mediainfo nebyl.

Pravidla pro filmy a DVD - povinné údaje

1. název
2. rok vydání
3. délka
4. Jazyk zvuku
5. jazyk titulku
6. bitrate zvuku a použitý kodek
7. bitrate videa, rozlišení a použitý kodek (pro zjištěni použijte program Media Info)
8. popis děje
9. odkaz na http://www.csfd.cz/
10.odkaz na obrázek - použijte "moje obrázky" nebo odkaz do img kódu


Doporučené údaje

1. obal DVD - odkaz
2. styl (komedie, thriler, horor atd.)
3. Nahledy - screenshots, nebo odkazy na ne. (U porno videi pouze odkazy!)


Po vydýchání jsem ten mediainfo nakonec našel, pro WINDOWS i LINUX je mediainfo k nalezení na sourceforge.net. Po spuštění v příkazové řádce se zobrazí všechny potřebné informace (a daleko více).
[uzivatel@piskot krampack]$ mediainfo lvice.avi

General
Complete name                    : lvice.avi
Format                           : AVI
Format/Info                      : Audio Video Interleave
File size                        : 868 MiB
Duration                         : 1h 30mn
Overal bit rate                  : 1341 Kbps

Video
Format                           : MPEG-4 Visual
Format profile                   : Simple@L3
Format settings, BVOP            : No
Format settings, QPel            : No
Format settings, GMC             : No warppoints
Format settings, Matrix          : Default
Codec ID                         : XVID
Codec ID/Hint                    : XviD
Duration                         : 1h 30mn
Bit rate                         : 1199 Kbps
Width                            : 640 pixels
Height                           : 360 pixels
Display aspect ratio             : 16/9
Frame rate                       : 29.970 fps
Original frame rate              : 29.969 fps
Resolution                       : 8 bits
Colorimetry                      : 4:2:0
Scan type                        : Progressive
Bits/(Pixel*Frame)               : 0.174
Stream size                      : 777 MiB (89%)
Writing library                  : Magic0432

Audio
Format                           : MPEG Audio
Format version                   : Version 1
Format profile                   : Layer 3
Codec ID                         : 55
Codec ID/Hint                    : MP3
Duration                         : 1h 30mn
Bit rate mode                    : Constant
Bit rate                         : 128 Kbps
Channel(s)                       : 2 channels
Sampling rate                    : 44.1 KHz
Resolution                       : 16 bits
Stream size                      : 82.9 MiB (10%)

Doplníme do tabulky:

tab

dáme pokračovat, vyplníme popisek torrentu a krátký popisek, klepneme na tlačítko další a hotovo. Stiskneme tlačítko schválit, objeví se, že není sdílený tak ho dáme sdílet a čekáme na poštu od moderátora. Buď přijde, že byl schválen nebo že se má něco doplnit. Doplníme a dáme aktualizovat a znovu schválit a pokud bude schválen, tak je to vše, už se může někdo na nás připojit a začít stahovat soubor(y).

SSL pro weby od 11/2015 zdarma


MS WINDOWS 10 - sběr informací o uživateli


DEBIAN 9 Stretch - OS zdarma debian vyšel 17.6.2017

debian 9

debian 9 - stáhnout pro PC


Zranitelnost „ROM-0“ routerů


Předali data tajným službám
Americké bezpečnostní agentuře (NSA) předali data Microsoft, Yahoo, Google, Facebook...


Itálie preferuje open source
Italský parlament schválil zákon, který nařizuje státním institucím pořizovat otevřený software před komerčním. To znamená LINUX místo MS-WINDOWS, LIBRE OFFICE místo MS OFFICE atd.

01.07. 2017 19:50:10
  • Redakční systém MRS
  • 10 nečastějších zranitelností WEBU
  • Esperantoesperanto - univerzální mezinárodní jazyk
  • SMS zdarma - posílání SMS zdarma
  • proč LINUX
  • základy LINUXU
  • Software na úřadech - jeho otevřené alternativy
  • Řekněte sbohem Microsoftu
  • Rychlost připojení - změřte si svoji rychlost
  • SEO servis
  • Jak psát web
  • Zákony - občanský, autorský, obchodní zákoník atd.
  • Infosoud - nalezení stání a průběhu jednání
  • ARES - registr ekonomických subjektů
  • Katastr nemovitostí
  • Broďan - brodské nezávislé zpravodajství
01.09. 2016 10:53:48
Návštěvy
Celkem: 155607
Týden: 559
Dnes: 53
Květná 1843, Uherský Brod  přihlásit poslední změna: 17.09. 2016 17:30:48